STREAM 720p Majo no takkyûbin (1989) film online anschauen und downloaden.1080dpi

Bewertet: 7.8 aus 10 mit 120124 Stimmen.

DVD.1080p 720p HD Majo no takkyûbin (1989) online stream deutsch

DVD.1080p 720p HD Majo no takkyûbin (1989) online sehen

Online-Kino kinokiste.su bietet Ihnen Filme online in guter Qualität und in HD-Qualität kostenlos. Die Website bietet eine große Auswahl an Filmen in hoher Qualität online 1080p, die ohne Einschränkungen und Registrierung angesehen werden können. Share this Rating. Title: Majo no takkyûbin (2014). Fans of Japanese film will notice a few interesting casting choices - like Asano Tadanobu and Rie Miyazawa. Looking for some great streaming picks? Check out some of the IMDb editors' favorites movies and shows to round out your... Adventure, comedy, drama. A young girl named Kiki (Fuka Koshiba) must leave her home for a year to begin training in witchcraft. She leaves on her broom, but first says goodbye to her friends and family. Kiki then begins her new life with her trusted cat Jiji. Running time: 1:48:00. Post Tagged with: "Majo no Takkyūbin Movie in Hindi". All Hindi Dubbed Hollywood Movies and Tv Series Dual Audio Hindi Free Download Pc 720p 480p Movies Download,Worldfree4u , 9xmovies, world4ufree, world4free, Khatrimaza 123Movies fmovies Gomovies gostream 300Mb Dual Audio Hindi... Majo no Takkyûbin izle 2014 Japonya Fantastik türündeki yapımı Türkçe Altyazılı hd kalitede hdfilmcehennemi den izleyebilirsiniz. Majo no Takkyûbin izle. Kiki (Fuka Koshiba) adlı küçük kızın büyücülük eğitimine başlaması için bir yıllığına evini terk etmesi gerekmektedir. Yönetmen: Hayao Miyazaki Yıl: 1989 Oyuncular: Minami Takayama, Rei Sakuma, Kappei Yamaguchi, Keiko Toda, Mieko Nobusawa, Kôichi Miura, Haruko Kato, Hiroko Seki, Yuriko Fuchizaki Ve onun çok önemli bir görevi vardır. ↺ ★✓ ↥↧imdb: 7.9. MAJO NO TAKKYÛBIN (1989) izle. Filmler / film izle. Magnet Download. Text #1 ID : 4 Format : PGS Muxing mode : zlib Codec ID : S_HDMV/PGS Codec ID/Info : Picture based subtitle format used on BDs/HD-DVDs Duration : 1 h 42 min Bit rate : 25.8 kb/s Count of elements : 2652 Stream size : 18.9 MiB (1%) Language : Japanese Default : No Forced : No. Critics Of "Majo no takkyûbin (1989)". Variety. The film becomes a benign guided tour of femininity ... gently broaching universal coming-of-age issues such as independence, insecurity, and even - more boldly than any Western children's movie would contemplate - sexuality. Bei StreamKiste.tv findet Ihr stets aktuelle Kinofilme, HD Movies kostenlos als online Stream direkt zum anschauen. Um sein zehnjähriges Jubiläum auf YouTube zu feiern, haben seine Freunde sich etwas ganz Besonderes einfallen lassen - er selber hat... HD 1080. Die besten Filme Online | KinoX. Kinox.LinkFilme und Serien online schauen kostenlos deutsch. Stream Online filme 2018,2019 anschauen kostenlos. Kinox.Su hostet keine Filme auf dem eigenen Server. DVD.1080p 720p HD Majo no takkyûbin (2014) online sehen : Majo no takkyûbin is a movie starring Tadanobu Asano, Machiko Ono, and Rie Miyazawa. A young witch, on her mandatory year of independent life, finds fitting into a new community difficult while she supports herself by running an... 2020, USA, Vergiftete Wahrheit online film deutsch Vergiftete Wahrheit film stream, Alle Filme. Seien Sie in einer guten Stimmung und Filme online! Unsere Ressource Filme online hd bietet, versuchen wir, die besten Filme und Filmvertrieb Premiere für die Online-Anzeige zu wählen. Inmiddels was ik de inhoud van de film al grotendeels vergeten maar met deze herkijk kan ik bevestigen dat het nog steeds net zo leuk is als toen. De tekenstijl is klassiek Ghibli en het naar Europees voorbeeld ontworpen stadje is een lust voor het oog; de vibrante kleuren en de architectuur... Adventure, comedy, drama. A young girl named Kiki (Fuka Koshiba) must leave her home for a year to begin training in witchcraft. She leaves on her broom, but first says goodbye to her friends and family. Kiki then begins her new life with her trusted cat Jiji. Running time: 1:48:00. Film Majo no takkyûbin (2014) streaming VF Complet Gratuit sur Papystreaming en HD 720p, Full HD 1080p, Ultra HD 4K . Majo no takkyûbin (1989) - Excellent TV Shows & Movies at Gomovies. Majo no takkyûbin (1989). Description At her mother's behest, 13-year-old witch Kiki sets out on a year-long apprenticeship A wonderful and enchanting animated film about a 13-year-old girl's initiation into adulthood through her... Majo no takkyûbin is 1989 year Released Japan Adventure film. This is the story of a young witch, named Kiki who is now 13 years old. But she is still a little green and plenty headstrong, but also resourceful, imaginative, and determined. With her trusty wisp of a talking cat named Jiji by her side... Majo no takkyûbin full online putlocker. A young girl named Kiki (Fuka Koshiba) must leave her home for a year to begin training in witchcraft. PutLocker is one of the largest video streaming websites in the world. It is popular for a variety of reasons, but mostly for streaming media such as TV shows and... Vegamovies is the best online platform for downloading dual audio movies, dual audio webseries, hindi dubbed, netflix series, amazon prime, altbalaji, ullu webseries with fast G-drive links. Majo no takkyûbin izle, Küçük Cadı Kiki - izle, 720p izle, 1080p hd izle, filmin bilgileri, konusu, oyuncuları, tüm serileri bu sayfada.. Favorilerinize ekleyip, adresimizi sosyal medyada paylaşarak bizlere yardımcı olabilirsiniz. Majo no takkyûbin (1989). Adventure, comedy, drama. A young girl named Kiki (Fuka Koshiba) must leave her home for a year to begin training in witchcraft. She leaves on her broom, but first says goodbye to her friends and family. Kiki then begins her new life with her trusted cat Jiji. Running time: 1:48:00. Magnet Download. Text #1 ID : 4 Format : PGS Muxing mode : zlib Codec ID : S_HDMV/PGS Codec ID/Info : Picture based subtitle format used on BDs/HD-DVDs Duration : 1 h 42 min Bit rate : 25.8 kb/s Count of elements : 2652 Stream size : 18.9 MiB (1%) Language : Japanese Default : No Forced : No. Filme online, im Stream schauen. Willkommen bei den Kinox.Im Magst du wirklich auch Filme, wie wir, und auch alle Hits des Films? Dann ist Kinox.im die beste Seite um Filme und TV-Shows zu anschauen! Nur hier wirst du finden kostenlose Online-Filme ohne irgendwelche Registrierungen! Fantasy. Director: Takashi Shimizu. Starring: Rie Miyazawa, Machiko Ono, Fûka Koshiba and others. Trzynastoletnia Kiki opuszcza rodzinny dom, aby rozpocząć praktykę magii i zostać czarownicą. Majo no Takkyûbin (1989). I was feeling blue, but I'm better now. [7,8 / 10]. Majo no Takkyûbin SYNOPSIS. Kiki is een heks die net 13 jaar oud is geworden. Zoals altijd bij heksen gaat ze op haar 13e weg van huis om zelfstandig te worden. Filme kostenlos, Kkiste im Online-Modus ansehen. Gute Qualität. Kkiste ist ein Film für dich. Wir bieten die besten Filme im Stream an, die Sie sich kostenlos auf kkiste.io anschauen können. Wenn Sie Ihren Lieblingsfilm und seinen Namen kennen möchten, verwenden Sie die Suche, die sich oben... Listado de episodios Majo No Takkyuubin 1989. Anime Online - AnimeFLV - Sitemaps - Ver Anime Online - Anime Sub Español - anime flv Ningún vídeo se encuentra alojado en nuestros servidores. Movie4k Stream Kostenlos filme online. Movie4k.su ist eine kostenlose Online-Plattform, auf der Sie Filme und TV-Sendungen per Streaming anschauen können. Damit kann man die neusten Kinofilme im Ultra 4K, 1080p HD, 720p streamen und anschauen. Filme kostenlos online schauen und Serien herunterladen. Nachdem sich Drogendealer Reinhold (Albrecht Schuch) und eines seiner Mädchen aneinander aufgegeilt haben, fällt die Tür zu, und es wird lautstark gebumst. 50

DVD.1080p 720p HD Majo no takkyûbin (1989) online sehen : Majo no takkyûbin is a movie starring Kirsten Dunst, Minami Takayama, and Rei Sakuma. A young witch, on her mandatory year of independent life, finds fitting into a new community difficult while she supports herself by running an....

Majo no takkyûbin (1989) ONLINE SEHEN









Weitere verwandte Filme