STREAM 720p Willy's Wonderland (2021) film online anschauen und downloaden.1080dpi

Bewertet: 5.6 aus 10 mit 6948 Stimmen.

DVD.1080p 720p HD Willy's Wonderland (2021) online stream deutsch

DVD.1080p 720p HD Willy's Wonderland (2021) online sehen

Willy's Wonderland. Trailer. Like and Share our website to support us. A quiet drifter is tricked into a janitorial job at the now condemned Wally's Wonderland. The mundane tasks suddenly become an all-out fight for survival against wave after wave of demonic animatronics. Watch Movie Favorite. Trailer: Willys Wonderland (2021). Rpmovies Pc 720p 480p Movies Download Rpmovies 2020, 720p Bollywood Movies Download Rpmovies, 720p Hollywood Hindi Dubbed Movies Download on rpmovies , 720p 480p South Indian Hindi Dubbed Movies Download... Jika Anda kesulitan nonton streaming film Cinema 21 online, cobalah When his car breaks down, a quiet loner agrees to clean an abandoned family fun center in exchange for repairs. He soon finds himself waging war against possessed animatronic mascots while trapped inside Willy's Wonderland. A quiet drifter is tricked into a janitorial job at the now condemned Wally's Wonderland. The mundane tasks suddenly become an all-out fight for survival against wave after wave of demonic animatronics. Fists fly, kicks land, titans clash -- and only one side will make it out alive. less. Director: Tidak Diketahui. Starring: Beth Grant, Emily Tosta, Nicolas Cage. Berikan Review. Visitor Rating. When his car breaks down, a quiet loner agrees to clean an abandoned family fun center in exchange for repairs. Download Movie Willy's Wonderland (2021) in HD Torrent. A quiet loner (Nic Cage) finds himself stranded in a remote town when his car breaks down. 720P WebRip. Keywords: Willy's Wonderland (2021) Torrent, Download movie Willy's Wonderland (2021) over a torrent, Willy's... A quiet drifter is tricked into a janitorial job at the now condemned Willy's Wonderland. The mundane tasks suddenly become an all-out fight for survival against wave after wave of demonic animatronics. Fists fly, kicks land, titans clash -- and only one side will make it out alive. WATCH Willy's Wonderland (2021) Movies Online Full Streaming Movie HD English / The Best Quality AVAILABLE NOW ➛➛ https watch Online, Willy's Wonderland watch streaming. A dream classification that worries the utilization of popular abstract or verifiable people and their... Download Film Willy's Wonderland (2021) Sub Indo, di Download film Willy's Wonderland (2021) sub indo coeg, Nonton online Willy's Wonderland (2021) Subtitle indonesia terupdate gratis dengan kualitas HD dan Bluray untuk ditonton sekarang! 720p Letsupload Reupload G-DriveShare. Subtitles for. Willy's Wonderland Imdb Flag. Year: 2021. Watch Trailer. Language Release Name/Film title. Files. Indonesian iMovies - Willy's Wonderland (2021) 720p WEBRip 2CH x265 HEVC. Elmo_Bagus. Korean Willys.Wonderland.2021.1080p.WEBRip.x264-RARBG. Sky_Hero. Willy's Wonderland : A quiet drifter is tricked into a janitorial job at the now condemned Wally's Wonderland. The mundane tasks suddenly become an all-out fight for survival against wave after wave of demonic animatronics. Fists fly, kicks land, titans clash -- and only one side will make it out alive. Willys Wonderland 2021 English HDRip 480p 250MB 720p 750MB ESubs. hd streaming openload putlockers tamilmv tamilrockers yify yts youtube Gingle HD Movies Point Pagal World Movies TvBox Go Movies Ocean Of Movies House Sab WAP Movies4Mobile MKV Cinemas FT MP4 Mania LosMovies... Willy's Wonderland When his car breaks down, a quiet loner agrees to clean an Production: Saturn Films, Landafar Entertainment, JD Entertainment. Watch Willy's Wonderland Online Free. Willy's Wonderland 2021 HD. F2movies is a Free Movies streaming site with zero ads. Willys.Wonderland.2021.1080p.AMZN.WEBRip.DDP5.1.x264. Magnet Download. Stream size : 407 MiB (8%) Title : English Language : English Service kind : Complete Main Default : No Forced : No. Text ID : 3 Format : UTF-8 Codec ID : S_TEXT/UTF8 Codec ID/Info : UTF-8 Plain Text Duration : 1 h... Willy's Wonderland : A quiet drifter is tricked into a janitorial job at the now condemned Wally's Wonderland. The mundane tasks suddenly become an all-out fight for survival against wave after wave of demonic animatronics. You can use it to streaming on your TV. Acerca de «Willy's Wonderland (2021)» HD 1080p & 720p. Un conserje (Interpretado por Nicholas Cage) se ve obligado a pasar toda la noche en un perturbador parque de atracciones que se acaba convirtiendo en una auténtica pesadilla, viéndose obligado a luchar contra un monstruo tras otro para... Action, comedy, horror. Director: Kevin Lewis. When his car breaks down, a quiet loner agrees to clean an abandoned family fun center in exchange for repairs. He soon finds himself waging war against possessed animatronic mascots while trapped inside Willy's Wonderland. Running time: 1:28:00. Movie: Willy's Wonderland. Detected quality: 1080p. He soon finds himself trapped inside Willy's and locked in an epic battle with the possessed animatronic mascots that roam the halls. mode : Lossy Stream size : 142 MiB (8%) Language : English Default : Yes Alternate group : 1 Encoded date... SceneSource > Movies > HD > Willys Wonderland 2021 1080p AMZN WEB-DL DDP5.1 The group CMRG released 1080p WEB-DL of 2021's Horror, Thriller movie Willy's Wonderland . The Map of Tiny Perfect Things 2021 720p WEB H264-NAISU ». Feel free to post any comments about Willys... Willy's Wonderland. (1,030)1 h 28 min2021X-Ray18+. When his car breaks down, a quiet loner (Nic Cage) agrees to clean an abandoned family fun center in exchange for repairs. He soon finds himself waging war against possessed animatronic mascots while trapped inside Willy's Wonderland. Un conserje (Interpretado por Nicholas Cage) se ve obligado a pasar toda la noche en un perturbador parque de atracciones que se acaba convirtiendo en una auténtica pesadilla, viéndose obligado a... Dewanonton, Download, Download Film, Download Movie, DUNIA21, FILMAPIK, Ganool, INDOXXI, Layar Kaca 21, NS21 | CinemaIndo. Klik tombol di bawah ini untuk pergi ke halaman website download film Willy's Wonderland (2021). Terdapat banyak pilihan penyedia file pada halaman... 50

DVD.1080p 720p HD Willy's Wonderland (2021) online sehen : Willy's Wonderland is a movie starring Nicolas Cage, Emily Tosta, and Beth Grant. A quiet drifter is tricked into a janitorial job at the now condemned Willy's Wonderland. The mundane tasks suddenly become an all-out fight for....

Willy's Wonderland (2021) ONLINE SEHEN









Weitere verwandte Filme